设为首页

数字音乐论坛-怀旧金典

 找回密码
 立即注册
查看: 218|回复: 9

[流行] [原创]岳雷-岳雷畅销名曲][WAV/CEU/642M][百度网盘]

[复制链接]

91

主题

817

帖子

7094

积分

高级会员

Rank: 4

原创高手勋章

发表于 2022-1-16 07:51:48 | 显示全部楼层 |阅读模式 来自 中国吉林长春
3.jpg


2.jpg


1.jpg


[专辑名称]岳雷-岳雷畅销名曲

[唱片公司]南方唱片

[唱片编号]GD-7263-2

[专辑语言]国语

[发行日期]2009年

[专辑曲目]

01、迟到

02、为何梦见她

03、燃烧吧火鸟

04、万水千山总是情

05、求你再爱我

06、风儿踢踏踩

07、鬼脸娃娃

08、年轻人的梦

09、你说过

10、上班

11、你家大门





12、爱你不是谎言

13、悄悄喜欢你

14、舞女





15、告别的眼神

16、我的一颗心

17、海角天涯只爱她

18、独行

19、鼓励鼓励

20、森林之歌

游客,如果您要查看本帖隐藏内容请回复


岳雷提取码.rar (98 Bytes, 下载次数: 8, 售价: 100 金币)

Exact Audio Copy V1.3 from 2. September 2016

EAC 抓取日志文件从15. 一月 2022, 19:41

未知艺术家 / 未知标题

使用驱动器  :PLDS    DVD-RW DS8A8SH   Adapter: 1  ID: 0

读取模式      : 可靠Secure
使用精确流     : 是
清空音频缓存    : 是
使用 C2 指示器 : 否

读取偏移校正:               : 6
读取 Lead-In 和 Lead-Out : 否
用静音填充抓取中丢失偏移的采样       : 是
去除首尾静音块               : 否
在CRC 计算中使用了空样本       : 是
已用接口                  : Win NT 及 2000 本地 Win32 接口

所用输出模式: : 内部 WAV 函数
样本格式    : 44.100 Hz; 16 Bit; 立体声


已抓取 CD 的 TOC

     音轨 |    起始    |    长度    |  起始扇区  |  结束扇区  
    --------------------------------------------
      1 |  0:00.30 |  3:23.24 |     30 |  15278
      2 |  3:23.54 |  3:27.41 |  15279 |  30844
      3 |  6:51.20 |  2:59.28 |  30845 |  44297
      4 |  9:50.48 |  2:48.22 |  44298 |  56919
      5 | 12:38.70 |  2:54.40 |  56920 |  70009
      6 | 15:33.35 |  2:32.27 |  70010 |  81436
      7 | 18:05.62 |  3:21.67 |  81437 |  96578
      8 | 21:27.54 |  3:28.40 |  96579 | 112218
      9 | 24:56.19 |  3:37.43 | 112219 | 128536
     10 | 28:33.62 |  2:11.40 | 128537 | 138401
     11 | 30:45.27 |  3:03.37 | 138402 | 152163
     12 | 33:48.64 |  3:40.41 | 152164 | 168704
     13 | 37:29.30 |  2:34.35 | 168705 | 180289
     14 | 40:03.65 |  3:57.36 | 180290 | 198100
     15 | 44:01.26 |  3:51.37 | 198101 | 215462
     16 | 47:52.63 |  3:27.47 | 215463 | 231034
     17 | 51:20.35 |  2:58.26 | 231035 | 244410
     18 | 54:18.61 |  2:52.02 | 244411 | 257312
     19 | 57:10.63 |  2:47.56 | 257313 | 269893
     20 | 59:58.44 |  3:42.72 | 269894 | 286615


范围状态及错误

已选择范围

     文件名 F:\抓轨专辑\1\岳雷-畅销名曲.wav

     峰值电平 100.0 %
     抓取速度 1.9 X
     范围质量 100.0 %
     复制 CRC 8A0B06EF
     复制成功

没有错误发生


AccurateRip 摘要

音轨  1  精确地校准抓取  1)  [996E01A5]  (AR v2)
音轨  2  精确地校准抓取  1)  [73D6F0AA]  (AR v2)
音轨  3  精确地校准抓取  1)  [A925761D]  (AR v2)
音轨  4  精确地校准抓取  1)  [E533F3AE]  (AR v2)
音轨  5  精确地校准抓取  1)  [A8A204E4]  (AR v2)
音轨  6  精确地校准抓取  1)  [90F14564]  (AR v2)
音轨  7  精确地校准抓取  1)  [7EF002BC]  (AR v2)
音轨  8  精确地校准抓取  1)  [E2657343]  (AR v2)
音轨  9  精确地校准抓取  1)  [DA16AD79]  (AR v2)
音轨 10  精确地校准抓取  1)  [D53A2504]  (AR v2)
音轨 11  精确地校准抓取  1)  [6EC192EF]  (AR v2)
音轨 12  精确地校准抓取  1)  [AF57B910]  (AR v2)
音轨 13  精确地校准抓取  1)  [B717D55F]  (AR v2)
音轨 14  精确地校准抓取  1)  [FB95844B]  (AR v2)
音轨 15  精确地校准抓取  1)  [53D990FD]  (AR v2)
音轨 16  精确地校准抓取  1)  [9B292011]  (AR v2)
音轨 17  精确地校准抓取  1)  [B073984E]  (AR v2)
音轨 18  精确地校准抓取  1)  [EAFFA4E6]  (AR v2)
音轨 19  精确地校准抓取  1)  [FEF4A000]  (AR v2)
音轨 20  精确地校准抓取  1)  [1A6BA64A]  (AR v2)

所有音轨精确校准抓取

状态报告结尾

---- CUETools DB Plugin V2.1.6

[CTDB TOCID: NnqSvZWrhdFBYGgDh4zT2HvoY2Q-] disk not present in database
Submit result: NnqSvZWrhdFBYGgDh4zT2HvoY2Q- has been uploaded


==== 记录校验日志 C9A43245EA74FEBFAA0672DD63B45A40C04796DA4FC647881C6C7F5DB0AA1BC2 ====



评分

参与人数 1威望 +10 金币 +50 贡献 +10 收起 理由
WSAN + 10 + 50 + 10 很给力!

查看全部评分

回复

使用道具 举报

1

主题

391

帖子

2393

积分

初级会员

Rank: 2

发表于 2022-1-16 08:28:44 | 显示全部楼层 来自 中国上海
万分感谢楼主的分享的优质资源。
回复

使用道具 举报

34

主题

2080

帖子

4484

积分

中级会员

Rank: 3Rank: 3

发表于 2022-1-16 09:27:34 | 显示全部楼层 来自 中国湖南衡阳
喜欢听岳雷的声音,
有人说到再没有比歌曲更忠诚的事物了,人会跑远,记忆会消逝,多年以后,这些歌仍会带着我们的故事,在我们眼中闪现光芒。
回复

使用道具 举报

12

主题

1131

帖子

3205

积分

中级会员

Rank: 3Rank: 3

发表于 2022-1-16 14:13:41 | 显示全部楼层 来自 中国云南昆明
谢谢楼主老师分享,岳雷也是中国人喜欢的歌手,虽然他是新加坡人
回复

使用道具 举报

26

主题

1031

帖子

1万

积分

版主

Rank: 7Rank: 7Rank: 7

斑竹勋章

发表于 2022-1-17 00:03:29 | 显示全部楼层 来自 中国山西运城
很喜欢岳雷的声音,感谢分享好听的歌曲。
回复

使用道具 举报

163

主题

2681

帖子

4万

积分

版主

Rank: 7Rank: 7Rank: 7

原创高手勋章

发表于 2022-1-17 07:57:18 | 显示全部楼层 来自 中国黑龙江大庆
以前买过岳雷演唱的盒带专辑,感觉唱的还不赖,这个专辑第一次见,试听曲不错,很喜欢,感谢分享!!
回复

使用道具 举报

2

主题

734

帖子

1631

积分

新手上路

Rank: 1

发表于 2022-1-17 13:30:14 | 显示全部楼层 来自 中国浙江嘉兴
南方唱片出版的,岳雷是新马歌手吧,好像大都是台湾地区的流行歌曲!
回复

使用道具 举报

 成长值: 1080

22

主题

2832

帖子

1万

积分

VIP

Rank: 5Rank: 5

发表于 2022-2-3 11:08:28 | 显示全部楼层 来自 中国山东枣庄
岳雷的这盘专辑不错,都是经典老歌,感谢上传,新年愉快。
回复

使用道具 举报

 成长值: 1080

22

主题

2832

帖子

1万

积分

VIP

Rank: 5Rank: 5

发表于 2022-2-3 15:45:04 | 显示全部楼层 来自 中国山东枣庄
REM DISCID 070EED14
REM COMMENT "ExactAudioCopy v1.3"
PERFORMER "岳雷"
TITLE "岳雷畅销名曲"
REM COMPOSER ""
FILE "岳雷-畅销名曲.wav" WAVE
  TRACK 01 AUDIO
    TITLE "迟到"
    PERFORMER "岳雷"
    REM COMPOSER ""
    INDEX 00 00:00:00
    INDEX 01 00:00:30
  TRACK 02 AUDIO
    TITLE "为何梦见她"
    PERFORMER "岳雷"
    REM COMPOSER ""
    INDEX 01 03:23:54
  TRACK 03 AUDIO
    TITLE "燃烧吧火鸟"
    PERFORMER "岳雷"
    REM COMPOSER ""
    INDEX 01 06:51:20
  TRACK 04 AUDIO
    TITLE "万水千山总是情"
    PERFORMER "岳雷"
    REM COMPOSER ""
    INDEX 01 09:50:48
  TRACK 05 AUDIO
    TITLE "求你再爱我"
    PERFORMER "岳雷"
    REM COMPOSER ""
    INDEX 01 12:38:70
  TRACK 06 AUDIO
    TITLE "风儿踢踏踩"
    PERFORMER "岳雷"
    REM COMPOSER ""
    INDEX 01 15:33:35
  TRACK 07 AUDIO
    TITLE "鬼脸娃娃"
    PERFORMER "岳雷"
    REM COMPOSER ""
    INDEX 01 18:05:62
  TRACK 08 AUDIO
    TITLE "年轻人的梦"
    PERFORMER "岳雷"
    REM COMPOSER ""
    INDEX 01 21:27:54
  TRACK 09 AUDIO
    TITLE "你说过"
    PERFORMER "岳雷"
    REM COMPOSER ""
    INDEX 01 24:56:19
  TRACK 10 AUDIO
    TITLE "上班"
    PERFORMER "岳雷"
    REM COMPOSER ""
    INDEX 01 28:33:62
  TRACK 11 AUDIO
    TITLE "你家大门"
    PERFORMER "岳雷"
    REM COMPOSER ""
    INDEX 01 30:45:27
  TRACK 12 AUDIO
    TITLE "爱你不是谎言"
    PERFORMER "岳雷"
    REM COMPOSER ""
    INDEX 01 33:48:64
  TRACK 13 AUDIO
    TITLE "悄悄喜欢你"
    PERFORMER "岳雷"
    REM COMPOSER ""
    INDEX 01 37:29:30
  TRACK 14 AUDIO
    TITLE "舞女"
    PERFORMER "岳雷"
    REM COMPOSER ""
    INDEX 01 40:03:65
  TRACK 15 AUDIO
    TITLE "告别的眼神"
    PERFORMER "岳雷"
    REM COMPOSER ""
    INDEX 01 44:01:26
  TRACK 16 AUDIO
    TITLE "我的一颗心"
    PERFORMER "岳雷"
    REM COMPOSER ""
    INDEX 01 47:52:63
  TRACK 17 AUDIO
    TITLE "海角天涯只爱她"
    PERFORMER "岳雷"
    REM COMPOSER ""
    INDEX 01 51:20:35
  TRACK 18 AUDIO
    TITLE "独行"
    PERFORMER "岳雷"
    REM COMPOSER ""
    INDEX 01 54:18:61
  TRACK 19 AUDIO
    TITLE "鼓励鼓励"
    PERFORMER "岳雷"
    REM COMPOSER ""
    INDEX 01 57:10:63
  TRACK 20 AUDIO
    TITLE "森林之歌"
    PERFORMER "岳雷"
    REM COMPOSER ""
    INDEX 01 59:58:44
回复

使用道具 举报

34

主题

2080

帖子

4484

积分

中级会员

Rank: 3Rank: 3

发表于 2022-4-4 10:16:18 | 显示全部楼层 来自 中国湖南衡阳
岳雷一张精选集CD选曲不错好多好歌在里面。这是新马的的CD不是大陆的CD。lz发错区了。
回复

使用道具 举报

您需要登录后才可以回帖 登录 | 立即注册

本版积分规则

Archiver|手机版|小黑屋|客户端|数字音乐论坛 ( 津ICP备09009336号-1 )

GMT+8, 2022-5-17 12:06 , Processed in 1.203125 second(s), 30 queries .

Powered by Discuz X3.4 Licensed

© 2008-2022 上网要文明 回帖要理性

快速回复 返回顶部 返回列表