设为首页

数字音乐论坛-怀旧金典

 找回密码
 立即注册
查看: 460|回复: 3

[原创][王晓晴-爱的锦标[WAV/CUE/384M][百度网盘]

[复制链接]

91

主题

817

帖子

7094

积分

高级会员

Rank: 4

原创高手勋章

发表于 2021-11-5 18:50:37 | 显示全部楼层 |阅读模式 来自 中国吉林松原
1.jpg


2.jpg


3.jpg


[专辑名称]王晓晴-爱的锦标

[发行公司]海山唱片复刻版

[唱片编号]LS-7089

[专辑语言]国语

[发行时间]2003年

[专辑曲目]

01、爱的锦标

02、一片云烟

03、爱和喜

04、我为他祈祷



05、青春乐章

06、小姐

07、秋雨行

08、我为你而来

09、一张书箴

10、你在我心中

11、我把热情带回来

12、我骑了一部单车



游客,如果您要查看本帖隐藏内容请回复


提取码.rar (89 Bytes, 下载次数: 3, 售价: 88 金币)

Exact Audio Copy V1.3 from 2. September 2016

EAC 抓取日志文件从5. 十一月 2021, 18:05

未知艺术家 / 未知标题

使用驱动器  :PLDS    DVD-RW DS8A8SH   Adapter: 1  ID: 0

读取模式      : 可靠Secure
使用精确流     : 是
清空音频缓存    : 是
使用 C2 指示器 : 否

组合读写偏移校正:             : 6
读取 Lead-In 和 Lead-Out : 否
用静音填充抓取中丢失偏移的采样       : 是
去除首尾静音块               : 否
在CRC 计算中使用了空样本       : 是
已用接口                  : Win NT 及 2000 本地 Win32 接口

所用输出模式: : 内部 WAV 函数
样本格式    : 44.100 Hz; 16 Bit; 立体声


已抓取 CD 的 TOC

     音轨 |    起始    |    长度    |  起始扇区  |  结束扇区  
    --------------------------------------------
      1 |  0:00.00 |  2:30.22 |      0 |  11271
      2 |  2:30.22 |  3:30.05 |  11272 |  27026
      3 |  6:00.27 |  2:24.66 |  27027 |  37892
      4 |  8:25.18 |  3:35.00 |  37893 |  54017
      5 | 12:00.18 |  3:08.07 |  54018 |  68124
      6 | 15:08.25 |  3:40.70 |  68125 |  84694
      7 | 18:49.20 |  3:38.49 |  84695 | 101093
      8 | 22:27.69 |  3:28.66 | 101094 | 116759
      9 | 25:56.60 |  3:26.39 | 116760 | 132248
     10 | 29:23.24 |  2:58.32 | 132249 | 145630
     11 | 32:21.56 |  3:24.65 | 145631 | 160995
     12 | 35:46.46 |  2:19.08 | 160996 | 171428


范围状态及错误

已选择范围

     文件名 F:\抓轨专辑\未知艺术家 - 未知标题.wav

     峰值电平 100.0 %
     抓取速度 1.2 X
     范围质量 100.0 %
     复制 CRC 2A6F0279
     复制成功

没有错误发生

状态报告结尾

---- CUETools DB Plugin V2.1.6

[CTDB TOCID: XXHDwseXHb0cqVLI4LRu2gmCDGg-] disk not present in database
Submit result: XXHDwseXHb0cqVLI4LRu2gmCDGg- has been uploaded


==== 记录校验日志 9665A8064FAABC05102BF4F87FE6D6C8523F97CA4B10E5B83681EECD9A03216E ====






评分

参与人数 1威望 +10 金币 +50 贡献 +10 收起 理由
WSAN + 10 + 50 + 10 很给力!

查看全部评分

回复

使用道具 举报

 成长值: 1080

1

主题

2722

帖子

1万

积分

VIP

Rank: 5Rank: 5

发表于 2021-11-6 06:18:47 | 显示全部楼层 来自 中国山东淄博
早起坐沙发欣赏,感谢楼主分享。
回复

使用道具 举报

1

主题

127

帖子

375

积分

新手上路

Rank: 1

发表于 2021-11-8 05:47:32 | 显示全部楼层 来自 中国上海
王晓晴的作品还是蛮有味的,谢谢楼主
回复

使用道具 举报

13

主题

351

帖子

1574

积分

新手上路

Rank: 1

发表于 2022-1-5 21:36:21 | 显示全部楼层 来自 中国广西来宾
见过王晓晴的一些专辑,熟悉她那首《我为他祈祷》。
回复

使用道具 举报

您需要登录后才可以回帖 登录 | 立即注册

本版积分规则

Archiver|手机版|小黑屋|客户端|数字音乐论坛 ( 津ICP备09009336号-1 )

GMT+8, 2022-5-17 13:23 , Processed in 1.171875 second(s), 30 queries .

Powered by Discuz X3.4 Licensed

© 2008-2022 上网要文明 回帖要理性

快速回复 返回顶部 返回列表