设为首页

数字音乐论坛-怀旧金典

 找回密码
 立即注册
查看: 475|回复: 3

[原创][康乔-拉兹之歌[WAV/CUE/350M][百度网盘]

[复制链接]

91

主题

817

帖子

7094

积分

高级会员

Rank: 4

原创高手勋章

发表于 2021-11-12 18:59:46 | 显示全部楼层 |阅读模式 来自 中国辽宁抚顺
1.jpg


2.jpg


3.jpg


[专辑名称]康乔-拉兹之歌

[专辑编号]LFCD8203

[唱片公司]丽风唱片

[专辑语言]国语

[发行时间]1984/2015复刻

[专辑曲目]

01、拉兹之歌



02、莫负青春

03、梦

04、珊瑚颂



05、森林之歌

06、再吻我一次

07、月儿弯弯照九州(江梦蕾合唱)

08、蒙古牧歌

09、红豆词

10、蔷薇之恋

11、牧羊女

12、海水清又蓝

游客,如果您要查看本帖隐藏内容请回复


康乔提取码.rar (95 Bytes, 下载次数: 9, 售价: 88 金币)

Exact Audio Copy V1.3 from 2. September 2016

EAC 抓取日志文件从12. 十一月 2021, 17:51

未知艺术家 / 未知标题

使用驱动器  :PLDS    DVD-RW DS8A8SH   Adapter: 1  ID: 0

读取模式      : 可靠Secure
使用精确流     : 是
清空音频缓存    : 是
使用 C2 指示器 : 否

组合读写偏移校正:             : 6
读取 Lead-In 和 Lead-Out : 否
用静音填充抓取中丢失偏移的采样       : 是
去除首尾静音块               : 否
在CRC 计算中使用了空样本       : 是
已用接口                  : Win NT 及 2000 本地 Win32 接口

所用输出模式: : 内部 WAV 函数
样本格式    : 44.100 Hz; 16 Bit; 立体声


已抓取 CD 的 TOC

     音轨 |    起始    |    长度    |  起始扇区  |  结束扇区  
    --------------------------------------------
      1 |  0:00.00 |  3:05.25 |      0 |  13899
      2 |  3:05.25 |  2:08.28 |  13900 |  23527
      3 |  5:13.53 |  2:36.65 |  23528 |  35292
      4 |  7:50.43 |  3:23.57 |  35293 |  50574
      5 | 11:14.25 |  2:38.65 |  50575 |  62489
      6 | 13:53.15 |  3:28.50 |  62490 |  78139
      7 | 17:21.65 |  3:50.36 |  78140 |  95425
      8 | 21:12.26 |  2:34.73 |  95426 | 107048
      9 | 23:47.24 |  3:02.61 | 107049 | 120759
     10 | 26:50.10 |  2:30.51 | 120760 | 132060
     11 | 29:20.61 |  2:42.51 | 132061 | 144261
     12 | 32:03.37 |  2:40.26 | 144262 | 156287


范围状态及错误

已选择范围

     文件名 F:\抓轨专辑\康乔-拉兹之歌.wav

     峰值电平 100.0 %
     抓取速度 1.6 X
     范围质量 100.0 %
     复制 CRC A336ED05
     复制成功

没有错误发生

状态报告结尾

---- CUETools DB Plugin V2.1.6

[CTDB TOCID: KsuVHG6zTbDqbC4J9kPJfbhEeH4-] disk not present in database
Submit result: KsuVHG6zTbDqbC4J9kPJfbhEeH4- has been uploaded


==== 记录校验日志 EF1CC1631DE9C1C0DB43404A0538ECF1B7827ABF4CB46640E9A54AAC052835DD ====




评分

参与人数 1威望 +10 金币 +50 贡献 +10 收起 理由
WSAN + 10 + 50 + 10 很给力!

查看全部评分

回复

使用道具 举报

 成长值: 1080

1

主题

2722

帖子

1万

积分

VIP

Rank: 5Rank: 5

发表于 2021-11-13 06:40:52 | 显示全部楼层 来自 中国山东淄博
坐沙发欣赏康乔的早期专辑,感谢楼主分享。
回复

使用道具 举报

163

主题

2681

帖子

4万

积分

版主

Rank: 7Rank: 7Rank: 7

原创高手勋章

发表于 2021-11-13 07:46:34 | 显示全部楼层 来自 中国黑龙江
康乔的歌,听过不少,个人感觉他唱的中国民歌,有自己的鲜明的特点,非常棒,很喜欢。
回复

使用道具 举报

1

主题

273

帖子

523

积分

新手上路

Rank: 1

发表于 2021-12-23 07:31:37 | 显示全部楼层 来自 中国黑龙江哈尔滨
港台东南亚明星都在走国内民歌路线哦
回复

使用道具 举报

您需要登录后才可以回帖 登录 | 立即注册

本版积分规则

Archiver|手机版|小黑屋|客户端|数字音乐论坛 ( 津ICP备09009336号-1 )

GMT+8, 2022-5-17 13:13 , Processed in 1.281250 second(s), 30 queries .

Powered by Discuz X3.4 Licensed

© 2008-2022 上网要文明 回帖要理性

快速回复 返回顶部 返回列表